Доктор Стрэндж

Лицензия

Добыча

Дубляж

Дом дракона

1 сезон

Тор

Дубляж

В эфире

Дубляж

Там, где раки поют

MVO

Властелин колец

1 сезон

GLOBAL

pack

Рекомендуем

30

Пиратка

ВАЖНО

ВАЖНО

Ghostwire

Пиратка

jed

RePack

nioh2

RePack

RDR2

RePack

NEED FOR SPEED™ PAYBACK

RePack

скачать торрент

Кинопоиск HD

Острые козырьки 6 сезон

6 сезон

FAR CRY 6

RePack

скачать торрент

Лицензия

скачать торрент

MVO

1

1 сезон

скачать торрент

1 сезон

скачать торрент

Лицензия

  

Смертельный выбор / Choose or Die (Тоби Микинс) [2022, Ужасы, триллер, драма, WEB-DLRip-AVC] DVO [Pazl Voice] от ExKinoRay

Смертельный выбор через торрент 0iz.vidak.icu

Раздают: 2 [ 0 KB/s ]
Размер: 1.67 GB | Добавлен: 7 мес. назад | Торрент скачан:144 раза
Смотреть онлайн | Скачать   

23-04-2022 17:00 Смертельный выбор Скачать торрент  


Смертельный выбор / Choose or Die
Информация Описание:
Название: Смертельный выбор
Оригинальное название: Choose or Die
Год выхода: 2022
Жанр: Ужасы, триллер, драма
Режиссер: Тоби Микинс
В ролях: Эйса Баттерфилд, Эдди Марсан, Роберт Инглунд, Кейт Флитвуд, Райан Гейдж, Айола Эванс, Анджела Гриффин, Кэролайн Лонк, Джо Болланд, Джордж Хеннигэн, Иоанна Кимбук, Джордж, Пит Макхейл

Описание: В надежде выиграть денежный приз друзья перезапускают загадочную компьютерную игру 1980-х и попадают в сюрреалистичный мир полный ужаса.



Страна: Великобритания
Студия: Anton, Stigma Films
Продолжительность: 01:25:54
Перевод: Любительский, двухголосый закадровый - Pazl Voice



Информация о файле:
Кодек: AVC
Формат: MKV
Качество: WEB-DLRip-AVC
Видео: MPEG-4 AVC, 1024x428, 23.976 fps, 1880 kb/s
Аудио RU: AC3, 6 ch, 48 kHz, 448 kbps
Аудио EN: AC3, 6 ch, 48 kHz, 448 kbps
Субтитры: Русские, английские



x264 info: frame I:1056 Avg QP:13.10 size: 61586
x264 info: frame P:21766 Avg QP:16.27 size: 21400
x264 info: frame B:100877 Avg QP:18.13 size: 6724
General
Unique ID : 128524228956211376371578536420910084604 (0x60B0DDB98E4080C570B2F130E5E4B1FC)
Complete name : D:uTorrentРипы wolf1245Choose or Die.2022.DVO.Pazl.x264.WEB-DLRip-AVC.[wolf1245.ExKinoRay].mkv
Format : Matroska
Format version : Version 4
File size : 1.67 GiB
Duration : 1 h 25 min
Overall bit rate : 2 775 kb/s
Movie name : Choose or Die.2022.DVO.Pazl.x264.WEB-DLRip-AVC.[wolf1245.ExKinoRay]
Encoded date : UTC 2022-04-23 16:30:27
Writing application : mkvmerge v67.0.0 ('Under Stars') 64-bit
Writing library : libebml v1.4.2 + libmatroska v1.6.4
Video
ID : 1
Format : AVC
Format/Info : Advanced Video Codec
Format profile : [email protected]
Format settings : CABAC / 10 Ref Frames
Format settings, CABAC : Yes
Format settings, Reference frames : 10 frames
Codec ID : V_MPEG4/ISO/AVC
Duration : 1 h 25 min
Bit rate : 1 880 kb/s
Width : 1 024 pixels
Height : 428 pixels
Display aspect ratio : 2.40:1
Frame rate mode : Constant
Frame rate : 24.000 FPS
Color space : YUV
Chroma subsampling : 4:2:0
Bit depth : 8 bits
Scan type : Progressive
Bits/(Pixel*Frame) : 0.179
Stream size : 1.13 GiB (68%)
Title : -=[wolf1245.ExKinoRay]=-
Writing library : x264 core 163 r3060 5db6aa6
Encoding settings : cabac=1 / ref=10 / deblock=1:-2:-2 / analyse=0x3:0x133 / me=umh / subme=11 / psy=1 / psy_rd=1.05:0.10 / mixed_ref=1 / me_range=32 / chroma_me=1 / trellis=2 / 8x8dct=1 / cqm=0 / deadzone=22,11 / fast_pskip=1 / chroma_qp_offset=-3 / threads=10 / lookahead_threads=2 / sliced_threads=0 / nr=0 / decimate=0 / interlaced=0 / bluray_compat=0 / constrained_intra=0 / bframes=10 / b_pyramid=2 / b_adapt=2 / b_bias=0 / direct=3 / weightb=1 / open_gop=0 / weightp=2 / keyint=240 / keyint_min=24 / scenecut=40 / intra_refresh=0 / rc_lookahead=60 / rc=2pass / mbtree=0 / bitrate=1880 / ratetol=1.0 / qcomp=0.60 / qpmin=0 / qpmax=69 / qpstep=4 / cplxblur=20.0 / qblur=0.5 / vbv_maxrate=50000 / vbv_bufsize=62500 / nal_hrd=none / filler=0 / ip_ratio=1.40 / pb_ratio=1.30 / aq=2:0.80
Language : English
Default : Yes
Forced : No
Audio #1
ID : 2
Format : AC-3
Format/Info : Audio Coding 3
Commercial name : Dolby Digital
Codec ID : A_AC3
Duration : 1 h 25 min
Bit rate mode : Constant
Bit rate : 448 kb/s
Channel(s) : 6 channels
Channel layout : L R C LFE Ls Rs
Sampling rate : 48.0 kHz
Frame rate : 31.250 FPS (1536 SPF)
Compression mode : Lossy
Stream size : 275 MiB (16%)
Title : DVO | Pazl Voice | RUS
Language : Russian
Service kind : Complete Main
Default : Yes
Forced : No
Audio #2
ID : 3
Format : AC-3
Format/Info : Audio Coding 3
Commercial name : Dolby Digital
Codec ID : A_AC3
Duration : 1 h 25 min
Bit rate mode : Constant
Bit rate : 448 kb/s
Channel(s) : 6 channels
Channel layout : L R C LFE Ls Rs
Sampling rate : 48.0 kHz
Frame rate : 31.250 FPS (1536 SPF)
Compression mode : Lossy
Stream size : 275 MiB (16%)
Title : Original | ENG
Language : English
Service kind : Complete Main
Default : Yes
Forced : No
Text #1
ID : 4
Format : UTF-8
Codec ID : S_TEXT/UTF8
Codec ID/Info : UTF-8 Plain Text
Duration : 1 h 23 min
Bit rate : 59 b/s
Count of elements : 915
Stream size : 36.6 KiB (0%)
Language : Russian
Default : No
Forced : No
Text #2
ID : 5
Format : UTF-8
Codec ID : S_TEXT/UTF8
Codec ID/Info : UTF-8 Plain Text
Duration : 1 h 21 min
Bit rate : 42 b/s
Count of elements : 888
Stream size : 25.4 KiB (0%)
Language : English
Default : No
Forced : No
Релиз от:
Автор релиза:



Скачать Смертельный выбор через торрент http://i117.fastpic.org/big/2022/0423/6a/eed2fcf093a5bd0a7f1d44daf5186e6a.jpg Скачать, смотреть онлайн Смертельный выбор бесплантно в хорошем качестве Описание: Название: Смертельный выбор Оригинальное название: Choose or Die Год выхода: 2022 Жанр: Ужасы, триллер, драма Режиссер: Тоби ... 10 10 3
Торрент: Зарегистрирован [2022-04-23 17:00] · скачан: 144 раз
Статус: T временная
Размер: 1.67 GB
Как cкачать? Как скачать Смертельный выбор через торрент | UTorrent

% Раздел Тема Автор DL S | L
T Фильмы (WEB-DL 720p, 1080p) [ 4.6 GB ] Смертельный выбор / Choose or Die | Pazl Voice | 1080p bober100 Скачать
3 | 0

28-11-2019 20:33  


Отключить вcю реклaмy на сайте, в т.ч. и в плеере онлайн просмотра!

    Дорогой пользователь! Огромная просьба, поблагодарите релизера, оцените раздачу и оставьте свои комментарий, если Вы скачали Смертельный выбор через торрент бесплатно!!
    Комментировать посты могут только пользователи прошедшие не сложную регистрацию
    Показать сообщения:    


    Смертельный выбор через торрент
    Скачать бесплатно Смертельный выбор
    Смертельный выбор скачать торрент
    Смертельный выбор смотреть онлайн
    Cкачать фильм Смертельный выбор бесплатно
    Смертельный выбор скачать торрент в хорошем качестве
    Смертельный выбор смотреть онлайн бесплатно в хорошем качестве
    Вы можете начинать темы
    Вы можете отвечать на сообщения
    Вы не можете редактировать свои сообщения
    Вы не можете удалять свои сообщения
    Вы не можете голосовать в опросах
    Вы не можете прикреплять файлы к сообщениям
    Вы можете скачивать файлы
    Смертельный выбор / Choose or Die [2022, Ужасы, триллер, драма, WEB-DLRip-AVC] DVO [Pazl Voice] от ExKinoRay смотреть онлайн, скачать торрент picoco.icu