Доктор Стрэндж

Лицензия

Добыча

Дубляж

Дом дракона

1 сезон

Тор

Дубляж

В эфире

Дубляж

Там, где раки поют

MVO

Властелин колец

1 сезон

GLOBAL

pack

Рекомендуем

30

Пиратка

ВАЖНО

ВАЖНО

Ghostwire

Пиратка

jed

RePack

nioh2

RePack

RDR2

RePack

NEED FOR SPEED™ PAYBACK

RePack

скачать торрент

Кинопоиск HD

Острые козырьки 6 сезон

6 сезон

FAR CRY 6

RePack

скачать торрент

Лицензия

скачать торрент

MVO

1

1 сезон

скачать торрент

1 сезон

скачать торрент

Лицензия

  

Неймар: Идеальный хаос / Neymar: The Perfect Chaos / Сезон: 1 / Серии: 1-3 из 3 (Дэвид Чарльз Родригес) [2022, Документальный, биография, спорт, WEB-DL 1080p] MVO [VSI Moscow / Netflix]

Неймар: Идеальный хаос через торрент 0iz.vidak.icu

Размер: 6.83 GB | Добавлен: 10 мес. назад | Торрент скачан:30 раз
| Скачать   

25-01-2022 09:50 Неймар: Идеальный хаос Скачать торрент  

Неймар: Идеальный хаос
Neymar: The Perfect Chaos

Год выпуска: 2022
Страна: США, Бразилия
Жанр: Документальный, биография, спорт
Продолжительность: ~ 00:55:00
Перевод: Профессиональный (многоголосый) | VSI Moscow по заказу Netflix
Субтитры: Русские (Forced, Full), английские (Full, SDH), португальские (Forced, SDH), украинские

Режиссер: Дэвид Чарльз Родригес

rating

В ролях: Неймар, Дэвид Бекхэм, Лионель Месси, Килиан Мбаппе

Описание: Его обожают и безжалостно критикуют. Всемирно известный бразильский футболист Неймар рассказывает о взлетах и падениях в личной жизни и невероятной спортивной карьере.

Качество: WEB-DL 1080p
Формат: MKV

Видео: AVC, 1920x1080 (16:9), 23.976 fps, ~5513 kbps
Аудио №1: E-AC3, 48 kHz, 6 ch, 640 kbps
Аудио №2: E-AC3 ATMOS, 48 kHz, 6 ch, 768 kbps
скриншот  скриншот  скриншот  скриншот  

General
Unique ID : 38455525893601132364198604375891628039 (0x1CEE43CF798DCD3737BFB9F8F98BD007)
Complete name : Neymar.The.Perfect.Chaos.S01E02.The.Comeback.1080p.NF.WEB-DL.DDP5.1.H.264-EniaHD.mkv
Format : Matroska
Format version : Version 4
File size : 2.96 GiB
Duration : 1 h 1 min
Overall bit rate mode : Variable
Overall bit rate : 6 923 kb/s
Movie name : Neymar: The Perfect Chaos S01E02 [The Comeback] - EniaHD
Writing application : mkvmerge v53.0.0 ('Fool's Gold') 64-bit
Writing library : libebml v1.4.1 + libmatroska v1.6.2

Video
ID : 1
Format : AVC
Format/Info : Advanced Video Codec
Format profile : [email protected]
Format settings : CABAC / 3 Ref Frames
Format settings, CABAC : Yes
Format settings, Reference fra : 3 frames
Codec ID : V_MPEG4/ISO/AVC
Duration : 1 h 1 min
Bit rate mode : Variable
Bit rate : 5 513 kb/s
Nominal bit rate : 4 748 kb/s
Maximum bit rate : 11.2 Mb/s
Width : 1 920 pixels
Height : 1 080 pixels
Display aspect ratio : 16:9
Frame rate mode : Constant
Frame rate : 23.976 (24000/1001) FPS
Color space : YUV
Chroma subsampling : 4:2:0
Bit depth : 8 bits
Scan type : Progressive
Bits/(Pixel*Frame) : 0.111
Stream size : 2.36 GiB (80%)
Writing library : x264 core 148 r2727 7d026e8
Encoding settings : cabac=1 / ref=3 / deblock=1:0:0 / analyse=0x1:0x111 / me=umh / subme=10 / psy=1 / psy_rd=1.00:0.00 / mixed_ref=1 / me_range=24 / chroma_me=1 / trellis=2 / 8x8dct=0 / cqm=0 / deadzone=21,11 / fast_pskip=1 / chroma_qp_offset=-2 / threads=8 / lookahead_threads=1 / sliced_threads=0 / nr=0 / decimate=1 / interlaced=0 / bluray_compat=0 / stitchable=1 / constrained_intra=0 / bframes=2 / b_pyramid=0 / b_adapt=2 / b_bias=0 / direct=3 / weightb=1 / open_gop=0 / weightp=2 / keyint=250 / keyint_min=23 / scenecut=0 / intra_refresh=0 / rc_lookahead=48 / rc=2pass / mbtree=1 / bitrate=4748 / ratetol=1.0 / qcomp=0.50 / qpmin=6 / qpmax=51 / qpstep=4 / cplxblur=20.0 / qblur=0.5 / vbv_maxrate=11250 / vbv_bufsize=15000 / nal_hrd=vbr / filler=0 / ip_ratio=1.40 / aq=1:1.00
Default : Yes
Forced : No

Audio #1
ID : 2
Format : E-AC-3
Format/Info : Enhanced AC-3
Commercial name : Dolby Digital Plus
Codec ID : A_EAC3
Duration : 1 h 1 min
Bit rate mode : Constant
Bit rate : 640 kb/s
Channel(s) : 6 channels
Channel layout : L R C LFE Ls Rs
Sampling rate : 48.0 kHz
Frame rate : 31.250 FPS (1536 SPF)
Compression mode : Lossy
Stream size : 280 MiB (9%)
Language : Russian
Service kind : Complete Main
Default : Yes
Forced : No

Audio #2
ID : 3
Format : E-AC-3 JOC
Format/Info : Enhanced AC-3 with Joint Object Coding
Commercial name : Dolby Digital Plus with Dolby Atmos
Codec ID : A_EAC3
Duration : 1 h 1 min
Bit rate mode : Constant
Bit rate : 768 kb/s
Channel(s) : 6 channels
Channel layout : L R C LFE Ls Rs
Sampling rate : 48.0 kHz
Frame rate : 31.250 FPS (1536 SPF)
Compression mode : Lossy
Stream size : 336 MiB (11%)
Title : Brazilian
Language : Portuguese
Service kind : Complete Main
Default : No
Forced : No
Complexity index : 16
Number of dynamic objects : 15
Bed channel count : 1 channel
Bed channel configuration : LFE

Text #1
ID : 4
Format : UTF-8
Codec ID : S_TEXT/UTF8
Codec ID/Info : UTF-8 Plain Text
Duration : 57 min 53 s
Bit rate : 7 b/s
Count of elements : 59
Stream size : 3.01 KiB (0%)
Title : Forced
Language : Russian
Default : Yes
Forced : No

Text #2
ID : 5
Format : UTF-8
Codec ID : S_TEXT/UTF8
Codec ID/Info : UTF-8 Plain Text
Duration : 59 min 11 s
Bit rate : 119 b/s
Count of elements : 812
Stream size : 51.8 KiB (0%)
Language : Russian
Default : No
Forced : No

Text #3
ID : 6
Format : UTF-8
Codec ID : S_TEXT/UTF8
Codec ID/Info : UTF-8 Plain Text
Duration : 59 min 14 s
Bit rate : 74 b/s
Count of elements : 854
Stream size : 32.3 KiB (0%)
Language : English
Default : No
Forced : No

Text #4
ID : 7
Format : UTF-8
Codec ID : S_TEXT/UTF8
Codec ID/Info : UTF-8 Plain Text
Duration : 55 min 36 s
Bit rate : 89 b/s
Count of elements : 908
Stream size : 36.4 KiB (0%)
Title : SDH
Language : English
Default : No
Forced : No

Text #5
ID : 8
Format : UTF-8
Codec ID : S_TEXT/UTF8
Codec ID/Info : UTF-8 Plain Text
Duration : 56 min 38 s
Bit rate : 33 b/s
Count of elements : 311
Stream size : 14.0 KiB (0%)
Title : Brazilian (Forced)
Language : Portuguese
Default : No
Forced : No

Text #6
ID : 9
Format : UTF-8
Codec ID : S_TEXT/UTF8
Codec ID/Info : UTF-8 Plain Text
Duration : 59 min 13 s
Bit rate : 90 b/s
Count of elements : 932
Stream size : 39.4 KiB (0%)
Title : Brazilian (SDH)
Language : Portuguese
Default : No
Forced : No

Text #7
ID : 10
Format : UTF-8
Codec ID : S_TEXT/UTF8
Codec ID/Info : UTF-8 Plain Text
Duration : 59 min 11 s
Bit rate : 120 b/s
Count of elements : 843
Stream size : 52.1 KiB (0%)
Language : Ukrainian
Default : No
Forced : No




Скачать Неймар: Идеальный хаос через торрент https://i7-imageban-ru.translate.goog/out/2022/01/25/bc4f21c9a21c0df7c64ad2257dd47f69.jpg Скачать, смотреть онлайн Неймар: Идеальный хаос бесплантно в хорошем качестве Описание: Его обожают и безжалостно критикуют. Всемирно известный бразильский футболист Неймар рассказывает о взлетах и падениях в личной ... 10 10 4
Торрент: Зарегистрирован [2022-01-25 09:50] · скачан: 30 раз
Статус: √ проверено
Размер: 6.83 GB
Как cкачать? Как скачать Неймар: Идеальный хаос через торрент | UTorrent

28-11-2019 20:33  


Отключить вcю реклaмy на сайте, в т.ч. и в плеере онлайн просмотра!

    Дорогой пользователь! Огромная просьба, поблагодарите релизера, оцените раздачу и оставьте свои комментарий, если Вы скачали Неймар: Идеальный хаос через торрент бесплатно!!
    Комментировать посты могут только пользователи прошедшие не сложную регистрацию
    Показать сообщения:    


    Неймар: Идеальный хаос через торрент
    Скачать бесплатно Неймар: Идеальный хаос
    Неймар: Идеальный хаос скачать торрент
    Неймар: Идеальный хаос смотреть онлайн
    Cкачать фильм Неймар: Идеальный хаос бесплатно
    Неймар: Идеальный хаос скачать торрент в хорошем качестве
    Неймар: Идеальный хаос смотреть онлайн бесплатно в хорошем качестве
    Вы не можете начинать темы
    Вы не можете отвечать на сообщения
    Вы не можете редактировать свои сообщения
    Вы не можете удалять свои сообщения
    Вы не можете голосовать в опросах
    Вы не можете прикреплять файлы к сообщениям
    Вы можете скачивать файлы
    Неймар: Идеальный хаос / Neymar: The Perfect Chaos / Сезон: 1 / Серии: 1-3 из 3 [2022, Документальный, биография, спорт, WEB-DL 1080p] MVO [VSI Moscow / Netflix] смотреть онлайн, скачать торрент picoco.icu